Jake and the Never Land Pirates | Jack Irish | Jack Whitehall Travels With My Father

iDATA

Register | Lost password ?
 
12 Jul 2016

Energy Healing with Donna Eden (1-3 Volume)

Category: Tutorials
 
iDATA Free Downloads
Energy Healing with Donna Eden (1-3 Volume)
 
http://ultraimg.com/images/2016/07/11/IzQSMb1468214487863.jpg
Energy Healing with Donna Eden (1-3 Volume)
3xVHSRip | AVI | English | 720 x 480 | DX50 ~1194 kbps | 29.970 fps
MP3 | 128 Kbps | 44.1 KHz | 2 channels | ~6 hours | 1.93 GB
Genre: eLearning Video / Health, Self Improvement

The six-hour video training series is designed to supplement the book and it also stands alone. It brings Donna's energy into your living room, making the self-care techniques presented in the book COME ALIVE with clear instructions and vivid demonstrations. It is a very well-organized and easy to follow presentation of the basic methods used in energy medicine.
An Overview of the Topics Covered in the 3-Video Series:

* Energy Testing
* The Daily Routine
* Neurolymphatic Reflex Points
* Neurovascular Points
* The Aura
* Energy Cross-Overs
* Tracing the Meridians
* Rebalancing a Meridian by:
o Stretching its Alarm Point
o Flushing it
o Massaging its Neurolymphatic Points
o Holding its Neurovascular Points
o Holding its Acupuncture Strengthening Points
o Correcting Homolateral Energies
o The Ileocecal Valve
* Alarm Points
* The Diaphragm
* Nuances of Energy Testing
* Surrogate Testing
* The Immune System: Triple Warmer/Spleen
* The Chakras
* The Five Rhythms
* Energy Techniques for Reducing Pain
* Relief from a Tension Headache
* Eye Pattern Reprogramming for Releasing Stored Stress
* Healing the Eyes
* Tapping Fear Out of Your Body
* Tapping Joy into Your Body
* Reprogramming Your Physical and Emotional Habits
Jean Houston, Ph.D.
Donna Eden's body energy work is perhaps the most brilliant, comprehensive, effective system in the genre I have ever seen.
This six-hour video training series brings Donna Eden's energy into your living room, making the self-care techniques presented in the book Energy Medicine COME ALIVE with clear instructions and vivid demonstrations. From this well-organized and easy to follow presentation of the basic energy medicine methods, viewers will learn how to:
·Improve memory, learning skills, and overall vitality
·Strengthen the immune, circulatory, lymphatic, and respirators systems
·Work with their chakras, meridians, aura, strange flows, and the five elements.
·Re-program physical and emotional habits
·A daily five-minute energy routine to keep their energies strong and balanced

The program is designed to supplement the book Energy Medicine (by Donna Eden with husband David Feinstein), and it also stands alone. Consistent feedback to Donna and David indicates that people never expected to get such tremendous value and so much useful information from a few videos.
MediaInfo:

General
Complete name : Donna Eden - P2 - 08 - The Diaphram.avi
Format : AVI
Format/Info : Audio Video Interleave
File size : 45.3 MiB
Duration : 4mn 45s
Overall bit rate : 1 334 Kbps
Writing library : Boilsoft Joiner build 2411/release
Video
ID : 0
Format : MPEG-4 Visual
Format settings, BVOP : 1
Format settings, QPel : No
Format settings, GMC : No warppoints
Format settings, Matrix : Default (H.263)
Muxing mode : Packed bitstream
Codec ID : DX50
Codec ID/Hint : DivX 5
Duration : 4mn 45s
Bit rate : 1 194 Kbps
Width : 720 pixels
Height : 480 pixels
Display aspect ratio : 3:2
Frame rate : 29.970 fps
Standard : NTSC
Color space : YUV
Chroma subsampling : 4:2:0
Bit depth : 8 bits
Scan type : Progressive
Compression mode : Lossy
Bits/(Pixel*Frame) : 0.115
Stream size : 40.6 MiB (90%)
Writing library : DivX 5.1.1 (Maupiti) (UTC 2003-11-19)
Audio
ID : 1
Format : MPEG Audio
Format version : Version 1
Format profile : Layer 3
Codec ID : 55
Codec ID/Hint : MP3
Duration : 4mn 45s
Bit rate mode : Constant
Bit rate : 128 Kbps
Channel(s) : 2 channels
Sampling rate : 44.1 KHz
Compression mode : Lossy
Delay relative to video : 21ms
Stream size : 4.35 MiB (10%)
Alignment : Split accross interleaves
Interleave, duration : 33 ms (1.00 video frame)
Interleave, preload duration : 500 ms
Screenshots

http://ultraimg.com/images/2016/07/11/9tca5yG81468214493043.jpg

http://ultraimg.com/images/2016/07/11/i7HrcHH4b1468214497265.jpg

http://ultraimg.com/images/2016/07/11/TmRHk1468214500975.jpg




Download link:
Links are Interchangeable - Single Extraction - Premium is support resumable
 
iDATA Free Downloads
Energy Healing with Donna Eden (1-3 Volume)

iDATA Free DownloadsEnergy Healing with Donna Eden (1-3 Volume)



Energy Healing with Donna Eden (1-3 Volume) Full Download

Energy Healing with Donna Eden (1-3 Volume) is available on a new fast direct download service with over 2,210,000 Files to choose from.Download anything with more then 1000+ Kb/s downloading speed. Go ahead download now and enjoy the speed !

 
Dear visitor, you went to website as unregistered user.
We encourage you to Register or Login to website under your name.